#TITLE:Crazy Love;
#SUBTITLE:Initiate;
#ARTIST:DBSK;
#TITLETRANSLIT:;
#SUBTITLETRANSLIT:;
#ARTISTTRANSLIT:;
#CREDIT:;
#BANNER:crazylove-bn.png;
#BACKGROUND:;
#LYRICSPATH:;
#CDTITLE:cdtitle.png;
#MUSIC:crazylove.mp3;
#OFFSET:-0.020;
#SAMPLESTART:100.000;
#SAMPLELENGTH:12.000;
#SELECTABLE:YES;
#DISPLAYBPM:129.000;
#BPMS:0.000=129.000,60.000=258.000,60.396=64.500,60.583=129.000,60.750=258.000,61.146=64.500,61.333=129.000,61.500=129.000,92.000=258.000,92.396=64.500,92.583=128.000,92.750=258.000,93.229=64.500,93.500=258.000,94.167=64.500,94.188=64.500,94.500=129.000,95.000=258.001,96.000=129.000,124.000=258.000,124.396=64.500,124.625=129.000,124.750=258.000,125.188=64.500,125.375=129.000;
#STOPS:95.125=0.060
,95.375=0.060
,95.625=0.060
,95.875=0.040
;
#BGCHANGES:;
// cache tags:
#FIRSTBEAT:0.000;
#LASTBEAT:242.000;
#SONGFILENAME:Songs/Initiate/crazylove/crazylove.sm;
#HASMUSIC:1;
#HASBANNER:1;
#MUSICLENGTH:113.266;
// end cache tags

//---------------dance-single - ----------------
#NOTES:
     dance-single:
     :
     Challenge:
     9:
     1.000,0.988,1.000,0.803,0.402,445.000,276.000,91.000,0.000,111.000:
0001
0000
0001
0100
0001
0000
0010
0100
1000
0001
0100
0000
1000
0000
0010
1000
,
0100
0010
1000
0020
0000
0130
1000
0000
,
0100
0000
1000
0001
0100
0010
1000
0100
0001
0000
0000
1000
1000
0000
0010
0000
,
0000
0000
0001
0000
0000
0001
0010
0001
1000
0000
1000
0000
0000
0000
0000
0000
,
1000
0000
1000
0001
0100
0000
1000
0100
1000
0001
0100
0000
0001
0000
1000
0000
,
0001
0000
0100
0000
1000
0000
2000
0000
0000
3000
1000
0000
1000
0000
0000
0000
,
0010
0100
1000
0000
0100
0010
0001
1000
0010
0100
1000
0001
0100
0010
0001
0000
,
1011
0000
0000
0000
0111
0000
0000
0000
1110
0000
0000
0000
1001
1001
1001
1001
,
1002
0000
0100
0000
1013
0000
0001
0010
0101
0000
1000
0000
2110
0000
0020
0000
,
3101
0000
0000
0000
0000
0000
0000
0000
2030
0000
0000
0000
0000
0000
0000
0000
0101
0000
0000
0000
0000
0000
0000
3000
0120
0000
0000
0000
0100
0000
0000
0000
0000
0000
0000
0000
0100
0000
0000
0000
0030
0000
0000
0000
0000
0000
0000
0000
0112
0000
0000
0000
0000
0000
0000
0000
1000
0000
0000
0000
0000
0000
0000
0000
,
1213
0000
0010
0000
1301
0000
0010
0010
0000
0000
1000
0000
0102
0000
0010
0000
,
2103
0000
0021
0000
3100
0000
0132
0100
0000
0100
2003
0000
3102
0000
2100
0000
,
3213
0000
0001
0000
0312
0000
1000
0100
1010
0000
1003
0000
0210
0000
0002
0000
,
1310
0000
2103
0000
0011
0000
3120
0100
1001
0100
0030
0000
2010
0000
0010
0000
,
3201
0000
0010
0000
1301
0000
0010
0010
1100
0000
0100
0000
1001
0000
0010
0000
,
0101
0000
0000
1001
0000
0000
2002
0000
0000
0000
0000
3003
0110
0110
0110
0110
,
0110
0000
1100
0000
0110
0000
0011
1100
0011
0000
1100
0000
0110
0000
0101
0000
,
0000
0000
0101
0000
1010
0000
0110
0110
1001
0000
0011
0000
1100
0000
1001
0000
,
0000
0000
1100
1010
0110
0000
0011
0101
1100
0000
0101
0000
0011
0000
1001
0000
,
0000
0000
0101
0000
0011
0000
0101
1010
0101
0000
1100
0000
1001
0000
0000
0000
,
0000
0000
0101
0101
1010
0001
0010
0100
1000
0010
0101
0000
1010
0000
0101
0000
,
1010
0000
0101
0000
1010
0001
0110
1000
,
0100
1000
1000
0100
0100
0010
0001
0001
0010
0000
0001
0000
0010
0000
1000
0000
,
0100
0000
0000
0001
0000
0000
0020
0000
0000
0000
0000
0030
1001
0110
1001
1001
,
1002
0000
0000
0000
1010
0000
0213
0010
1001
0000
0000
0000
1312
0000
0010
0000
,
1010
0000
0203
0000
1010
0000
0010
0010
1302
0000
0000
0000
0113
0000
0000
0000
,
1001
0000
0000
0000
0101
0000
0101
0110
1001
0000
1010
0000
0011
0000
0001
1100
,
0011
0000
1010
0101
0000
1010
0000
0101
0000
2200
0000
0000
3311
0000
0011
0000
,
0022
0000
0000
0000
0000
0000
0000
0000
0000
0000
0000
0000
0000
0000
0000
0000
0000
0000
0000
0000
0000
0000
0000
0033
0220
0000
0000
0000
0000
0000
0000
0000
0000
0000
0000
0000
0000
0000
0000
0000
0000
0000
0000
0000
0000
0000
0000
0330
2200
0000
0000
0000
0000
0000
0000
0000
0000
0000
0000
0000
0000
0000
0000
0000
,
0000
0000
0000
0000
0000
0000
0000
3300
2020
0000
0000
0000
0000
0000
0000
0000
0000
0000
0000
0000
0000
0000
0000
0000
0000
0000
0000
0000
0000
0000
0000
3030
0220
0000
0000
0000
0000
0000
0000
0000
0000
0000
0000
0000
0000
0000
0000
0000
1331
0000
0000
0000
0000
0000
0000
0000
0000
0000
0000
0000
0000
0000
0000
0000
,
1001
0000
0101
0000
1100
0011
1100
0110
0000
1001
0000
0000
0011
0000
0110
0000
,
1001
0000
0000
0011
0000
0000
0101
0000
0000
0000
0000
0000
0011
0101
1001
0101
,
2011
0000
0000
0000
3102
0000
0100
0100
1010
0000
2003
0000
0011
0000
0000
0000
,
3200
0000
0000
0000
1010
0000
0010
0010
1001
0010
1001
0000
1301
0000
0000
0000
,
1010
0000
0000
0000
1010
0000
0101
0101
0000
0000
0000
0000
0101
0000
0000
0000
,
1010
0000
0000
0000
0011
0000
0110
0110
1001
0000
0110
0000
1100
0000
0000
0000
,
0101
0000
0110
0000
1010
0000
2101
0101
0000
0000
0000
0000
3011
0000
0000
0000
,
1010
0000
0110
0000
0101
0000
0012
0010
1100
0010
1100
0000
0113
0000
0000
0000
,
0011
0000
0011
0000
1010
1100
0101
0011
,
0220
0000
0000
0000
0330
0000
0110
0000
1001
0000
0000
0000
1001
1010
1001
1010
,
1001
0000
0000
0000
0000
0000
0000
0000
1100
0000
0000
0000
0000
0000
0000
0000
0110
0000
0000
0000
0000
0000
0000
0000
0022
0000
0000
0000
0000
0000
0000
0000
0000
0000
0000
0000
0000
0000
0000
0000
0000
0000
0000
0000
0000
0000
0000
0033
0110
0000
0000
0000
0000
0000
0000
0000
0101
0000
0000
0000
0000
0000
0000
0000
,
0011
0000
0000
0000
0000
0000
0000
0000
0000
0000
0000
0000
1001
0000
0000
0000
0000
0000
0000
0000
0000
0000
0000
0000
0220
0000
0000
0000
0000
0000
0000
0000
0000
0000
0000
0000
0000
0000
0000
0000
0000
0000
0000
0000
0000
0000
0000
0330
0110
0000
0000
0000
0000
0000
0000
0000
1001
0000
0000
0000
0000
0000
0000
0000
,
0110
0000
0000
0000
0000
0000
0000
0000
0011
0000
0000
0000
0000
0000
0000
0000
0110
0000
0000
0000
0000
0000
0000
0000
2200
0000
0000
0000
0000
0000
0000
0000
0000
0000
0000
0000
0000
0000
0000
0000
0000
0000
0000
0000
0000
0000
0000
3300
1010
0000
0000
0000
0000
0000
0000
0000
0101
0000
0000
0000
0000
0000
0000
0000
,
0110
0000
0000
0000
0000
0000
0000
0000
0000
0000
0000
0000
0110
0000
0000
0000
0000
0000
0000
0000
0000
0000
0000
0000
0220
0000
0000
0000
0000
0000
0000
0000
0000
0000
0000
0000
0000
0000
0000
0000
0000
0000
0000
0000
0000
0000
0000
0330
0110
0000
0000
0000
0000
0000
0000
0000
1100
0000
0000
0000
0000
0000
0000
0000
,
0101
0000
0000
0000
0000
0000
0000
0000
0011
0000
0000
0000
0000
0000
0000
0000
0110
0000
0000
0000
0000
0000
0000
0000
1221
0000
0000
0000
1001
0000
0000
0000
0000
0000
0000
0000
0000
0000
0000
0000
0000
0000
0000
0000
0000
0000
0000
0000
0000
0000
0000
0000
0000
0000
0000
0330
0220
0000
0000
0000
0000
0000
0000
0000
,
0000
0001
1000
0002
0000
1003
0031
0001
,
2311
0000
0010
0000
0101
0000
0011
0110
0011
0000
0000
0000
0101
0000
0010
0000
,
3111
0000
0111
0000
1110
0000
0011
0001
,
0101
0011
1010
0220
0000
0000
1331
0011
,
0002
0000
0000
0020
0000
0000
1203
1000
0001
1000
0031
0000
1310
0000
0110
0000
,
0011
1010
0110
0202
0000
0000
1313
0100
,
2000
0000
0000
0200
0000
0000
3021
0001
1000
0301
1000
0000
0131
0000
0110
0000
,
1100
0000
0011
0000
0110
0000
2112
0110
0000
0000
0000
0000
0000
0000
3223
0000
,
0001
0000
1000
0000
0031
0000
1001
0010
1001
0010
0001
0000
1310
0000
0002
0000
,
0200
0000
0000
0000
1010
0000
1010
1010
0000
0000
0000
0000
1313
0000
1001
0000
,
0110
0000
0110
0000
2200
0000
3311
0020
,
1001
0000
0000
0000
0101
0000
0101
0101
0000
0000
0000
0000
1001
0000
1000
0000
,
0230
0000
0000
0000
1001
0000
1001
1001
0000
0000
0000
0000
1301
0000
1000
0000
,
0202
0000
0000
0000
1010
0000
1010
1010
0000
0000
1313
0000
0100
0000
1011
0000
,
0000
1110
0000
0111
0000
0000
1101
2202
,
0000
0000
3303
0000
;

//---------------dance-solo - SDO----------------
#NOTES:
     dance-solo:
     SDO:
     Edit:
     14:
     1.000,1.000,1.000,0.335,0.653,524.000,216.000,38.000,0.000,147.000:
000100
000000
001000
010000
000100
000000
000100
001000
010000
001000
010000
000000
000100
000000
010000
000100
,
001000
000000
000100
001000
000100
000000
010000
000000
000000
000100
001000
000000
010000
000000
000000
001000
,
010000
000000
000100
010000
001000
010000
000100
000000
001000
000000
001000
010000
000100
000000
001000
000000
,
001000
000100
010000
000000
001000
010000
000100
010000
000100
000000
010000
000000
000000
000000
000000
000000
,
000010
000000
001000
010000
000010
000000
000100
010000
000010
001000
000010
000000
000100
000000
010000
001000
,
000010
000000
000100
010000
001000
000000
000100
000000
000000
000000
010000
000001
000010
000100
001000
010000
,
100000
000000
001000
010000
001000
010000
000100
000000
000010
000000
000010
001000
000100
000000
000000
000000
,
000002
000000
000000
000000
000000
000000
000000
000000
000000
000000
000000
000000
001003
001000
001000
001000
,
100001
000000
000100
010000
000101
000000
101000
100000
001000
000010
001000
000000
010100
000000
001001
010000
,
100010
000000
001000
100010
001000
000000
000101
000001
000000
001001
100000
000000
001000
000000
000100
000010
,
100001
000000
000001
000100
110000
000000
000010
000010
000001
000000
010000
000000
001000
000100
000010
000001
,
010100
000000
000000
101000
000000
000000
010100
010000
000001
010000
000010
000000
100100
000000
001000
000000
,
100100
000001
000100
010000
000101
000000
101000
100000
001000
001000
010010
000001
001010
010000
100000
001000
,
000101
000000
001010
000000
101000
000000
000101
000001
000000
001010
100000
000000
001000
000000
000100
000000
,
100001
000100
000001
000100
110000
000000
000010
000010
000101
000000
010000
000100
101000
000100
000010
000001
,
100100
000000
000000
010010
000000
000000
100100
000000
000001
000000
000010
000000
100100
100000
101000
100000
,
010101
000000
000000
000000
100101
000000
010010
001000
010000
001000
100000
000000
000101
000000
100000
010000
,
100101
000000
000000
001000
100100
000000
001001
001000
000000
001000
100000
000000
101000
000000
001010
000000
,
100101
000000
000000
000000
100010
000000
001010
000100
100001
000000
010100
000000
100001
000000
000010
000000
,
101000
000000
000000
101000
000101
000000
101000
100000
000001
100000
001000
000000
100010
000000
001000
000000
,
010101
000000
000000
000000
101010
000000
010100
100001
000100
000010
001000
000000
000101
000000
010000
000000
,
100101
000000
001000
010000
100100
000000
000101
000001
000000
000100
100000
000000
001010
000000
010100
000000
,
100101
000000
000010
000001
101010
000100
001000
000100
010001
000000
010100
000000
100101
000000
010101
000000
,
100010
000000
000000
010100
000000
000000
100010
000000
000000
000000
100000
000000
100010
100010
100010
100010
,
010101
000000
000000
000000
100101
000000
001001
000100
001000
000100
010000
000000
101000
000000
000001
000010
,
101001
000000
000000
000101
101000
000000
001001
001000
000000
001000
000000
000000
010100
000000
001010
000000
,
100101
000000
001010
001001
100010
010100
100001
001010
,
101000
000000
000000
101000
000101
000000
101000
100000
000001
100000
000000
000000
100010
000000
000000
000000
,
010101
000000
000000
000000
100101
000000
001010
100001
000010
000001
000100
000000
000101
000000
000100
010000
,
100101
000000
000000
101010
000000
000000
010101
000001
000000
000001
100000
000000
001001
000000
100100
000000
,
100101
000000
101010
001000
010001
010100
100101
010010
,
100010
000000
000000
001001
000000
000000
100010
000000
000000
000000
000000
000000
010001
010001
010001
010001
,
101020
000000
000000
000000
010001
000000
100000
100000
002030
000000
000001
000000
010001
000000
000000
000000
,
203010
000000
000000
000000
010001
000000
001000
001000
300000
000100
000000
000000
010101
000000
001000
000000
,
020001
000000
000000
000000
100001
000000
000100
000100
000000
000000
000000
000000
100001
000000
000000
000000
,
130101
000000
000000
000000
101001
000000
000100
000100
000000
000100
000000
000000
010101
000000
000000
000000
,
101010
000000
000000
000000
000101
000000
100000
100000
001000
000000
000100
000000
100101
000000
000000
000000
,
101001
000000
000000
000000
000101
000000
010000
010000
000000
010000
000000
000000
100101
000000
000000
000000
,
101010
000000
000000
000000
001001
000000
101000
100000
000001
000000
001000
000000
010101
000000
100000
000000
,
010010
000000
000000
001100
000000
000000
001100
000000
000000
000000
000000
000000
010010
010010
010010
010010
,
200101
000000
001000
000000
010001
000000
002001
000001
000010
000000
000001
000000
300101
000000
000010
000000
,
123010
000000
000000
001000
000001
000000
200101
000001
000100
000001
000100
000000
030001
000010
000100
000000
,
321001
000000
000010
000000
100100
000000
002001
000001
000010
000000
000001
000000
130100
000000
000001
000000
,
213010
000000
000000
000101
010000
000000
020101
000001
000000
000001
000010
000000
300001
000000
000010
000000
,
032101
000000
000010
000000
100100
000000
200001
000001
000100
000000
000010
000000
003101
000000
000010
000000
,
321010
000000
000001
000000
100010
000000
002001
000001
000000
000010
000000
000000
130001
000000
000000
000000
,
203201
000000
000000
000000
010000
000000
000001
000001
000000
000000
000000
000000
310311
000000
000000
000000
,
100001
000000
000000
000000
001100
000000
010000
010000
100001
000100
000000
000000
000000
000000
000000
000000
,
100102
000000
001000
000000
010000
000000
100200
100000
010000
000000
001000
000000
010013
000000
100000
000000
,
100321
000000
000000
000100
100000
000000
100102
100000
001000
100000
001000
000000
001030
010000
100000
000000
,
100123
000000
001000
000000
010001
000000
100200
100000
010000
000000
001000
000000
100031
000000
010000
000000
,
010312
000000
000000
101000
000100
000000
101020
100000
010000
001000
100000
000000
010003
000000
100000
000000
,
100231
000000
001000
000000
010001
000000
100002
100000
010000
000000
001000
000000
100310
000000
001000
000000
,
001023
000000
000000
000000
010001
000000
100200
100000
000000
100000
001000
000000
101031
000000
000000
000000
,
210302
000000
000000
000000
000010
000000
010000
010000
000000
000000
000000
000000
310013
000000
000000
000000
,
101001
000000
000000
000000
001101
000000
010000
010000
000101
100000
001010
000000
100000
010000
001000
000100
,
100020
000000
000000
000000
100001
000000
001000
001000
000000
000000
000130
000000
101010
000000
000002
000000
,
101000
000000
000000
000000
100000
000000
010023
010000
000000
010000
000100
000000
101000
000000
002000
000000
,
100031
000000
000000
000000
010001
000000
203100
000100
000000
000010
000001
000000
000101
000000
000000
000000
,
310101
100101
101010
000000
;

//---------------dance-single - SDO----------------
#NOTES:
     dance-single:
     SDO:
     Edit:
     11:
     0.946,0.946,1.000,0.230,0.645,521.000,186.000,26.000,0.000,55.000:
0010
0000
0100
1000
0010
0000
0010
0100
1000
0100
1000
0000
0010
0000
1000
0010
,
0100
0000
0010
0100
0010
0000
1000
0000
0000
0010
0100
0000
1000
0000
0000
0100
,
1000
0000
0010
1000
0100
1000
0010
0000
0100
0000
0100
1000
0010
0000
0100
0000
,
0100
0010
1000
0000
0100
1000
0010
1000
0010
0000
1000
0000
0000
0000
0000
0000
,
0001
0000
0100
1000
0001
0000
0010
1000
0001
0100
0001
0000
0010
0000
1000
0100
,
0001
0000
0010
1000
0100
0000
0010
0000
0000
0000
0100
0001
0010
0100
1000
0100
,
0010
0000
0100
1000
0100
1000
0010
0000
0001
0000
0001
0100
0010
0000
0000
0000
,
0002
0000
0000
0000
0000
0000
0000
0000
0000
0000
0000
0000
0103
0010
0100
0010
,
0101
0000
0010
0100
0011
0000
1100
1000
0100
0010
0100
0000
1010
0000
0011
0100
,
1010
0000
0100
1010
0100
0000
0011
0001
0000
0101
1000
0000
0010
0000
0100
0010
,
1001
0000
0001
0010
1100
0000
0010
0010
0001
0000
0010
0000
1000
0100
0010
0001
,
1010
0000
0000
0101
0000
0000
1010
1000
0001
1000
0010
0000
0101
0000
1000
0000
,
1010
0001
0010
0100
0011
0000
1100
1000
0100
0100
1010
0001
0110
1000
0100
0010
,
0101
0000
0110
0000
1010
0000
0101
0001
0000
0101
1000
0000
0100
0000
0010
0000
,
1001
0010
0001
0010
1100
0000
0010
0010
0101
0000
0100
0001
1010
0100
0010
0001
,
1100
0000
0000
0101
0000
0000
1010
0000
0001
0000
0010
0000
0101
0010
1001
0010
,
0101
0000
0000
0000
1001
0000
0100
0010
0100
0010
1000
0000
0001
0000
1000
0100
,
1001
0000
0000
0100
1010
0000
0101
0100
0000
0010
1000
0000
1010
0000
0101
0000
,
1001
0000
0000
0000
1010
0000
0100
0010
1001
0000
0101
0000
1001
0000
0010
0000
,
1100
0000
0000
1010
0101
0000
1010
1000
0001
1000
0100
0000
1010
0000
0100
0000
,
0101
0000
0000
0000
1010
0000
0100
1001
0100
0010
0100
0000
0011
0000
0100
0000
,
1001
0000
0010
0100
1001
0000
0011
0001
0000
0010
1000
0000
0110
0000
0011
0000
,
1001
0000
0010
0001
1010
0100
1000
0100
1001
0000
0101
0000
1010
0000
0011
0000
,
1001
0000
0000
0110
0000
0000
1001
0000
0000
0000
0001
0000
0110
1001
0110
1001
,
0110
0000
0000
0000
1001
0000
0100
0010
0100
0010
0000
0000
1010
0000
0001
0010
,
1001
0000
0000
0011
1100
0000
0101
0100
0000
0100
0000
0000
1010
0000
0110
0000
,
1001
0000
0110
0101
1001
0110
1001
1010
,
0101
0000
0000
1010
0101
0000
1010
1000
0001
1000
0000
0000
1010
0000
0000
0000
,
1001
0000
0000
0000
1001
0000
0010
0001
0010
0001
0010
0000
1100
0000
0010
0100
,
1001
0000
0000
1010
0000
0000
0101
0001
0000
0001
1000
0000
0011
0000
1001
0000
,
1001
0000
1010
0010
0101
0110
1010
0101
,
1001
0000
0000
0011
0000
0000
1010
0000
0000
0000
0000
0000
0100
0010
0100
1000
,
0112
0000
0000
0000
1000
0000
0100
0100
0023
0000
1000
0000
1001
0000
0000
0000
,
2131
0000
0000
0000
0001
0000
0010
0010
3000
0001
0000
0000
1001
0000
0010
0000
,
0201
0000
0000
0000
1001
0000
0010
0010
0000
0000
0000
0000
1001
0000
0000
0000
,
1301
0000
0000
0000
1010
0000
0100
0100
0000
0100
0000
0000
0101
0000
0000
0000
,
1010
0000
0000
0000
0011
0000
1000
1000
0010
0000
0001
0000
1001
0000
0000
0000
,
1010
0000
0000
0000
0011
0000
0100
0100
0000
0100
0000
0000
1001
0000
0000
0000
,
1010
0000
0000
0000
0101
0000
1100
1000
0001
0000
0010
0000
0101
0000
1000
0000
,
0101
0000
0000
1010
0000
0000
1010
0000
0000
0000
0000
0000
0010
0100
0001
0010
,
2101
0000
0010
0000
0101
0000
0001
0001
0010
0000
0001
0000
3101
0000
0010
0000
,
1201
0000
0000
1000
0001
0000
1001
0001
0010
0001
0010
0000
0301
0010
1000
0000
,
2101
0000
0010
0000
0100
0000
0001
0001
0010
0000
0001
0000
3100
0000
0001
0000
,
1210
0000
0000
0011
1000
0000
0011
0001
0000
0001
1000
0000
0301
0000
0010
0000
,
1021
0000
0100
0000
1100
0000
0001
0001
1000
0000
0100
0000
1031
0000
0100
0000
,
0112
0000
0010
0000
1100
0000
0010
0010
0000
0000
0100
0000
1013
0000
0000
0000
,
2012
0000
0000
0000
0100
0000
0010
0010
0000
0000
0000
0000
3113
0000
0000
0000
,
1001
0000
0000
0000
0110
0000
0100
0100
1001
0010
0000
0000
0000
0000
0000
0000
,
1012
0000
0100
0000
1010
0000
1000
1000
0100
0000
1000
0000
1013
0000
0100
0000
,
1021
0000
0000
0001
1000
0000
1001
1000
0100
1000
0100
0000
0031
0100
1000
0000
,
1012
0000
0100
0000
0010
0000
1000
1000
0100
0000
1000
0000
0013
0000
1000
0000
,
0121
0000
0000
1100
0001
0000
1100
1000
0000
1000
0001
0000
1030
0000
0100
0000
,
1201
0000
0010
0000
0011
0000
1000
1000
0001
0000
0010
0000
1301
0000
0010
0000
,
2110
0000
0100
0000
0011
0000
0100
0100
0000
0000
0010
0000
3101
0000
0000
0000
,
2102
0000
0000
0000
0010
0000
0100
0100
0000
0000
0000
0000
3113
0000
0000
0000
,
1010
0000
0000
0000
0011
0000
0100
0100
0010
1000
0101
0000
1000
0100
0010
0001
,
1020
0000
0000
0000
1001
0000
0100
0100
0000
0000
0130
0000
1010
0000
0002
0000
,
1010
0000
0000
0000
1000
0000
0123
0100
0000
0100
0001
0000
1001
0000
0000
0000
,
1231
0000
0000
0000
0001
0000
2010
0310
0000
0010
0001
0000
0101
0000
0000
0000
,
3101
1001
1010
0000
;

//---------------dance-single - ----------------
#NOTES:
     dance-single:
     :
     Easy:
     6:
     0.579,0.614,0.247,0.450,0.287,380.000,28.000,51.000,0.000,5.000:
0001
0000
0000
0100
0001
0000
0000
0100
1000
0001
0010
0000
1000
0000
0000
0001
,
0001
0010
1000
0020
0000
0130
1000
0000
,
0100
0000
0000
0001
1000
0001
0010
0000
0001
0000
0000
1000
1000
0000
0010
0000
,
0000
0000
0001
0000
0000
0001
0010
0001
1000
0000
1000
0000
0000
0000
0000
0000
,
1000
0000
0000
0001
0100
0000
0000
0000
0010
0001
1000
0000
0001
0000
1000
0000
,
0001
0000
0100
0000
1000
0000
2000
0000
0000
3000
1000
0000
1000
0000
0000
0000
,
0010
0000
0000
0000
0100
0100
0000
0000
0010
0000
0000
0000
0100
0000
0000
0000
,
0001
0000
0000
0000
0100
0000
0000
0000
1000
0000
0000
0000
0001
0001
0001
0001
,
0002
0000
0000
0000
1003
0000
0001
0001
0000
0000
1000
0000
0100
0000
0010
0000
,
0101
0000
0000
0101
0000
0000
0020
0000
0000
0000
0031
0000
0001
0000
1000
0000
,
0100
0000
0010
0000
1000
0000
0010
0010
0000
0000
1000
0000
0100
0000
0010
0000
,
0100
0000
0000
0001
0000
0000
0200
0000
0000
0000
1300
0000
0100
0000
0100
0000
,
0010
0000
0001
0000
0010
0000
1000
1000
0000
0000
1000
0000
0010
0000
0100
0000
,
1000
0000
0000
0010
0000
0000
0200
0000
0000
0000
0310
0000
0010
0000
0010
0000
,
0001
0000
0010
0000
1001
0000
0010
0010
0000
0100
0000
0000
1001
0000
0010
0000
,
0101
0000
0000
1001
0000
0000
2002
0000
0000
0000
0000
3003
0010
0010
0010
0010
,
0010
1000
0100
0001
0010
1000
0100
0001
,
0000
0100
1000
0010
1000
0001
1000
0001
,
0000
0000
1000
1000
0010
0000
0010
0000
1000
0000
0100
0000
0010
0000
0001
0000
,
0000
0100
0001
0001
0101
1000
1001
0000
,
0000
0000
0001
0001
1000
0000
0010
0000
1000
0000
0001
0000
1000
0000
0001
0000
,
1010
0000
0101
0000
1010
0001
0010
1000
,
0100
1000
1000
0000
0001
0000
0001
0000
1000
0000
0001
0000
0100
0000
1000
0000
,
0100
0000
0000
0001
0000
0000
0020
0000
0000
0000
0000
0030
0001
0001
0001
0001
,
0002
0000
1000
0023
0000
0000
0032
0000
,
0000
0203
0000
0000
0302
0000
0013
0000
,
1001
0000
0000
0000
0100
0000
0001
0001
1000
0000
0010
0000
0001
0000
1000
1000
,
0001
0000
1000
0100
0000
0001
0000
0010
0000
1000
0000
0000
0001
0000
0100
0000
,
0002
0000
0000
0000
0000
0000
0000
0000
0000
0000
0000
0000
0000
0000
0000
0000
0000
0000
0000
0000
0000
0000
0000
0003
0020
0000
0000
0000
0000
0000
0000
0000
0000
0000
0000
0000
0000
0000
0000
0000
0000
0000
0000
0000
0000
0000
0000
0030
2000
0000
0000
0000
0000
0000
0000
0000
0000
0000
0000
0000
0000
0000
0000
0000
,
0000
0000
0000
0000
0000
0000
0000
3000
0020
0000
0000
0000
0000
0000
0000
0000
0000
0000
0000
0000
0000
0000
0000
0000
0000
0000
0000
0000
0000
0000
0000
0030
0200
0000
0000
0000
0000
0000
0000
0000
0000
0000
0000
0000
0000
0000
0000
0000
1300
0000
0000
0000
0000
0000
0000
0000
0000
0000
0000
0000
0000
0000
0000
0000
,
1000
0000
0001
0000
1000
0001
0001
1000
0000
1000
0000
0000
0001
0000
0100
0000
,
1000
0000
0000
0001
0000
0000
0001
0000
0000
0000
0000
0000
0010
0010
0010
0010
,
0020
0000
0130
0200
0000
2300
0000
0000
,
3200
0000
0000
0000
0001
0000
0001
0001
1000
0001
1000
0000
0301
0000
0000
0000
,
1010
0000
0000
0000
1010
0000
0001
0001
0000
0000
0000
0000
0100
0000
0000
0000
,
1000
0000
0000
0000
0001
0000
0100
0100
1000
0000
0010
0000
1000
0000
0000
0000
,
0001
0000
0010
0000
1000
0000
2001
0001
0000
0000
0000
0000
3001
0000
0000
0000
,
1000
0000
0100
0000
0100
0000
0012
1000
0000
0010
0000
0000
1003
0000
0000
0000
,
0011
0000
0011
0000
1000
0100
0001
0001
,
0020
0000
0000
0000
0030
0000
0010
0000
0001
0000
0000
0000
1000
1000
1000
1000
,
1000
0000
0000
0000
0000
0000
0000
0000
0100
0000
0000
0000
0000
0000
0000
0000
0010
0000
0000
0000
0000
0000
0000
0000
0002
0000
0000
0000
0000
0000
0000
0000
0000
0000
0000
0000
0000
0000
0000
0000
0000
0000
0000
0000
0000
0000
0000
0003
0100
0000
0000
0000
0000
0000
0000
0000
0100
0000
0000
0000
0000
0000
0000
0000
,
0010
0000
0000
0000
0000
0000
0000
0000
0000
0000
0000
0000
1000
0000
0000
0000
0000
0000
0000
0000
0000
0000
0000
0000
0200
0000
0000
0000
0000
0000
0000
0000
0000
0000
0000
0000
0000
0000
0000
0000
0000
0000
0000
0000
0000
0000
0000
0300
0010
0000
0000
0000
0000
0000
0000
0000
0001
0000
0000
0000
0000
0000
0000
0000
,
0010
0000
0000
0000
0000
0000
0000
0000
0001
0000
0000
0000
0000
0000
0000
0000
0100
0000
0000
0000
0000
0000
0000
0000
2000
0000
0000
0000
0000
0000
0000
0000
0000
0000
0000
0000
0000
0000
0000
0000
0000
0000
0000
0000
0000
0000
0000
3000
0010
0000
0000
0000
0000
0000
0000
0000
0001
0000
0000
0000
0000
0000
0000
0000
,
0100
0000
0000
0000
0000
0000
0000
0000
0000
0000
0000
0000
0010
0000
0000
0000
0000
0000
0000
0000
0000
0000
0000
0000
0020
0000
0000
0000
0000
0000
0000
0000
0000
0000
0000
0000
0000
0000
0000
0000
0000
0000
0000
0000
0000
0000
0000
0030
0100
0000
0000
0000
0000
0000
0000
0000
1000
0000
0000
0000
0000
0000
0000
0000
,
0001
0000
0000
0000
0000
0000
0000
0000
0001
0000
0000
0000
0000
0000
0000
0000
0100
0000
0000
0000
0000
0000
0000
0000
0201
0000
0000
0000
0001
0000
0000
0000
0000
0000
0000
0000
0000
0000
0000
0000
0000
0000
0000
0000
0000
0000
0000
0000
0000
0000
0000
0000
0000
0000
0000
0300
0020
0000
0000
0000
0000
0000
0000
0000
,
0000
0001
1000
0001
0000
1000
0031
0001
,
2001
0000
0001
0000
0100
0000
0001
0001
0000
0001
0000
0000
0100
0000
0000
0000
,
3100
0000
0001
0000
1000
0000
0001
0001
,
0001
0001
1000
0020
0000
0000
1030
0001
,
0002
0000
0000
0020
0000
0000
2003
0000
0000
0000
0030
0000
3100
0000
0010
0000
,
0001
1000
0100
0002
0000
0000
1003
0100
,
2000
0000
0000
0200
0000
0000
3002
0000
0000
0300
0000
0000
0013
0000
0010
0000
,
1000
0000
0010
0000
0100
0000
2001
0001
0000
0000
0000
0000
0000
0000
3200
0000
,
0001
0000
1000
0000
0001
0000
0001
0001
0000
0001
0000
0000
1301
0000
0002
0000
,
0200
0000
0000
0000
0000
0000
1303
1010
,
1010
0000
0101
0000
2200
0000
3311
0020
,
1000
0000
0000
0000
0001
0000
0001
0001
0000
0000
0000
0000
1000
0000
1000
0000
,
0230
0000
0000
0000
0001
0000
0001
0001
0000
0000
0000
0000
0301
0000
1000
0000
,
0002
0000
0000
0000
1000
0000
1000
1000
0000
0000
1003
0000
0100
0000
1000
0000
,
0000
0010
0000
0001
0000
0000
0001
0002
,
0000
0000
0003
0000
;
